The 5th Wave 2016 TELESYNC x264 AC3-Garmin

The 5th Wave 2016 TELESYNC x264 AC3-Garmin

Complete name                            : The 5th Wave 2016 TELESYNC x264 AC3
Format                                  : Matroska
Format version                          : Version 4 / Version 2
File size                                : 1.24 GiB
Duration                                : 1h 45mn
Overall bit rate                        : 1 676 Kbps
DURATION                                : 01:45:31.008000000
NUMBER_OF_FRAMES                        : 197844
NUMBER_OF_BYTES                          : 151944192

Video
ID                                      : 1
Format                                  : AVC
Format/Info                              : Advanced Video Codec
Format profile                          : [email protected]
Format settings, CABAC                  : Yes
Format settings, ReFrames                : 4 frames
Codec ID                                : V_MPEG4/ISO/AVC
Duration                                : 1h 45mn
Bit rate                                : 1 451 Kbps
Width                                    : 720 pixels
Height                                  : 352 pixels
Display aspect ratio                    : 2.045
Frame rate mode                          : Constant
Frame rate                              : 30.000 fps
Color space                              : YUV
Chroma subsampling                      : 4:2:0
Bit depth                                : 8 bits
Scan type                                : Progressive
Bits/(Pixel*Frame)                      : 0.191
Stream size                              : 1.07 GiB (87%)
Writing library                          : x264 core 148 r2638 7599210
Encoding settings                        : cabac=1 / ref=5 / deblock=1:-1:-1 / analyse=0x3:0x133 / me=hex / subme=9 / psy=1 / psy_rd=1.00:0.80 / mixed_ref=1 / me_range=16 / chroma_me=1 / trellis=1 / 8x8dct=1 / cqm=0 / deadzone=21,11 / fast_pskip=1 / chroma_qp_offset=-4 / threads=4 / lookahead_threads=1 / sliced_threads=0 / nr=0 / decimate=1 / interlaced=0 / bluray_compat=0 / constrained_intra=0 / bframes=3 / b_pyramid=1 / b_adapt=2 / b_bias=0 / direct=1 / weightb=1 / open_gop=0 / weightp=2 / keyint=300 / keyint_min=30 / scenecut=50 / intra_refresh=0 / rc_lookahead=50 / rc=crf / mbtree=1 / crf=22.0 / qcomp=0.60 / qpmin=0 / qpmax=69 / qpstep=4 / ip_ratio=1.40 / aq=1:1.50
Language                                : English
Default                                  : Yes
Forced                                  : No

Audio
ID                                      : 2
Format                                  : AC-3
Format/Info                              : Audio Coding 3
Mode extension                          : CM (complete main)
Format settings, Endianness              : Big
Codec ID                                : A_AC3
Duration                                : 1h 45mn
Bit rate mode                            : Constant
Bit rate                                : 192 Kbps
Channel(s)                              : 2 channels
Channel positions                        : Front: L R
Sampling rate                            : 48.0 KHz
Compression mode                        : Lossy
Stream size                              : 145 MiB (11%)
Language                                : English
Default                                  : Yes
Forced                                  : Yes


Screens:
http://uploaded.net/file/2i57nvls/gar-tfw.part2.rar

Uploadrocket.net

Code:


http://uploadrocket.net/1b1b09xfzamb/gar-tfw.part1.rar.html
http://uploadrocket.net/g4wbwv9tot3y/gar-tfw.part2.rar.html


Rapidgator.net

Code:


http://rapidgator.net/file/610e868978ef4c62de4d0a4fe46ee867/gar-tfw.part1.rar.html
http://rapidgator.net/file/b1e5a09268ea60aeed1dc7f08f382e44/gar-tfw.part2.rar.html



Download the.5th.wave.2016.telesync.x264.ac3.garmin.zip
Direct Link


Download


Download the.5th.wave.2016.telesync.x264.ac3.garmin.zip
Mediafire


Download


Download the.5th.wave.2016.telesync.x264.ac3.garmin.zip
Fileparadox


Download

Both comments and pings are currently closed.

Comments are closed.